<?xml version="1.0" standalone="no"?>
<!DOCTYPE svg PUBLIC "-//W3C//DTD SVG 1.1//EN" "http://www.w3.org/Graphics/SVG/1.1/DTD/svg11.dtd" >
<svg xmlns="http://www.w3.org/2000/svg" xmlns:xlink="http://www.w3.org/1999/xlink" version="1.1">
<metadata>
Created by FontForge 20150318 at Wed Jul  8 07:40:43 2015
 By uniteet7
Copyright (c) 2009 by BPG-InfoTech. All rights reserved.
</metadata>
<defs>
<font id="BPG_QuadroSquare" horiz-adv-x="1180" >
  <font-face 
    font-family="BPG_QuadroSquare"
    font-weight="400"
    font-stretch="normal"
    units-per-em="2048"
    panose-1="2 6 5 4 2 2 2 6 2 4"
    ascent="1556"
    descent="-492"
    x-height="1063"
    cap-height="1487"
    bbox="-108 -470 2040 1607"
    underline-thickness="104"
    underline-position="-149"
    unicode-range="U+0020-2212"
  />
<missing-glyph horiz-adv-x="692" 
 />
    <glyph glyph-name=".notdef" horiz-adv-x="692" 
 />
    <glyph glyph-name=".null" horiz-adv-x="0" 
 />
    <glyph glyph-name="nonmarkingreturn" horiz-adv-x="692" 
 />
    <glyph glyph-name="space" unicode=" " horiz-adv-x="692" 
 />
    <glyph glyph-name="exclam" unicode="!" horiz-adv-x="516" 
d="M172 388l-9 1099h190l-7 -1099h-174zM163 0v227h190v-227h-190z" />
    <glyph glyph-name="quotedbl" unicode="&#x22;" horiz-adv-x="569" 
d="M487 1434v-577h-138v577h138zM221 1434v-577h-137v577h137z" />
    <glyph glyph-name="numbersign" unicode="#" horiz-adv-x="1575" 
d="M942 1453l-164 -469h215q20 55 41.5 114.5t43.5 120t43 120t41 114.5h164l-165 -469h306l-50 -143h-307q-11 -31 -21 -59t-20.5 -55.5t-20.5 -55.5t-21 -60h331l-50 -145h-329q-40 -113 -83.5 -233.5t-83.5 -232.5h-167l168 466h-220q-20 -55 -41 -114.5t-43 -119.5
t-43.5 -119t-40.5 -113h-164l165 466h-319l53 145h315q11 32 21.5 59.5t20.5 54.5t20.5 55t22.5 61h-342l46 143h344q20 55 41.5 114.5t43.5 120t43.5 120t40.5 114.5h165zM942 841h-216q-11 -31 -21 -59t-20 -55.5t-20 -55.5t-21 -60h219z" />
    <glyph glyph-name="dollar" unicode="$" horiz-adv-x="1384" 
d="M611 1317h-22q-149 0 -198 -48q-48 -50 -48 -198q0 -119 48 -158q52 -38 220 -52v456zM789 168h19q148 0 198 53q51 52 51 213q0 132 -56 176q-55 46 -211 52zM323 511v-29q0 -18 -1 -27q0 -8 -0.5 -15t-0.5 -12q0 -152 49 -204t189 -52h30q12 0 21 1v494q-255 6 -355 92
q-106 90 -106 312q0 230 98 333h-1q99 103 320 103q16 0 26.5 -0.5t18.5 -0.5v101h178v-102h21q221 0 324 -86q102 -86 102 -278q0 -12 -1.5 -33t-5.5 -68h-189v39q0 8 0.5 18t0.5 25q0 114 -46 151q-50 40 -197 40h-9v-459q131 -5 218.5 -29t138.5 -67q105 -90 105 -318
q0 -245 -96 -354q-97 -110 -315 -110h-51v-92h-178v94q-1 0 -4 -0.5t-4 -0.5q-8 0 -15.5 -0.5t-11.5 -0.5q-234 0 -340 102q-107 102 -107 326q0 12 1 33t3 47v27h190z" />
    <glyph glyph-name="percent" unicode="%" horiz-adv-x="1858" 
d="M1377 -18q-173 0 -245 74q-71 76 -71 256v305q0 180 71 256q73 75 245 75h87q173 0 244 -74q72 -75 72 -257v-305q0 -182 -72 -257q-70 -73 -244 -73h-87zM394 540q-175 0 -245 74q-71 72 -71 254v307q0 180 72 255q70 75 244 75h87q173 0 244 -74q35 -38 53 -101
t18 -155v-307q0 -92 -18 -155t-53 -101q-71 -72 -244 -72h-87zM576 -18l524 1523h180l-525 -1523h-179zM474 710q97 0 126 30q29 32 29 160v245q0 131 -30 161q-28 31 -125 31h-72q-96 0 -129 -31q-29 -32 -29 -161v-245q0 -128 28 -160q30 -30 130 -30h72zM1455 153
q101 0 130 30q29 32 29 159v246q0 129 -29 160q-31 31 -130 31h-69q-98 0 -128 -31q-29 -29 -29 -160v-246q0 -63 6.5 -103t21.5 -56q14 -16 46.5 -23t82.5 -7h69z" />
    <glyph glyph-name="ampersand" unicode="&#x26;" horiz-adv-x="1489" 
d="M1205 169q-54 -101 -162 -144q-57 -23 -157 -33.5t-244 -10.5q-102 0 -175.5 6.5t-120.5 21.5q-95 29 -155 101q-20 24 -35 56.5t-24.5 76.5t-14 101t-4.5 130q0 91 17 164.5t46 120.5q28 39 72.5 69.5t101.5 47.5q-57 51 -83.5 123.5t-26.5 173.5q0 94 25 157.5
t75 101.5q97 73 352 73q242 0 348 -78q110 -80 110 -258v-141h-200v131q0 94 -37 125q-20 17 -75 24t-146 7q-170 0 -212 -28q-33 -26 -33 -114q0 -128 129 -237l11 -9q63 -53 123.5 -103.5t120.5 -101t121 -101.5t125 -104v180h200v-233q0 -22 -2 -48.5t-8 -58.5
q66 -56 139.5 -117t139.5 -115l-119 -143zM526 736q-57 -2 -98.5 -15.5t-63.5 -41.5q-47 -56 -47 -221q0 -122 12 -168q6 -23 15.5 -40t23.5 -28q27 -26 98 -38h-1q75 -12 263 -12q75 0 133.5 9t95.5 26q32 16 54.5 40t33.5 56z" />
    <glyph glyph-name="quotesingle" unicode="'" horiz-adv-x="295" 
d="M217 1434v-577h-137v577h137z" />
    <glyph glyph-name="parenleft" unicode="(" horiz-adv-x="664" 
d="M138 989q0 143 20.5 242t61.5 157q84 117 290 117h82v-190h-65q-111 0 -145 -51q-19 -28 -28 -98t-9 -182v-480q0 -225 37 -280q35 -52 145 -52h65v-190h-82q-206 0 -290 117q-41 58 -61.5 157t-20.5 242v491z" />
    <glyph glyph-name="parenright" unicode=")" horiz-adv-x="664" 
d="M526 498q0 -283 -83 -399q-84 -117 -289 -117h-82v190h64q111 0 145 52q38 54 38 280v480q0 226 -38 280q-33 51 -145 51h-64v190h82q205 0 289 -117q83 -115 83 -399v-491z" />
    <glyph glyph-name="asterisk" unicode="*" horiz-adv-x="1024" 
d="M367 1021h-275v168h276l-137 238l142 83l139 -238l139 238l142 -83l-136 -238h275v-168h-275l136 -237l-142 -84l-139 237l-139 -238l-142 83zM406 1045l106 -60l104 59v120l-104 62l-106 -61v-120z" />
    <glyph glyph-name="plus" unicode="+" horiz-adv-x="1706" 
d="M921 1227v-547h534v-134h-534v-546h-134v546h-536v134h536v547h134z" />
    <glyph glyph-name="comma" unicode="," horiz-adv-x="692" 
d="M241 0v250h210v-274q0 -87 -55 -134t-155 -47v126q38 4 55 16.5t17 38.5v24h-72z" />
    <glyph glyph-name="hyphen" unicode="-" horiz-adv-x="825" 
d="M121 472v175h583v-175h-583z" />
    <glyph glyph-name="period" unicode="." horiz-adv-x="692" 
d="M116 0v250h208v-250h-208z" />
    <glyph glyph-name="slash" unicode="/" horiz-adv-x="545" 
d="M110 -185h-174l525 1690h177z" />
    <glyph glyph-name="zero" unicode="0" horiz-adv-x="1384" 
d="M623 -18q-272 0 -383 115q-111 117 -111 401v491q0 285 111 401q111 115 383 115h139q274 0 383 -115h-1q111 -117 111 -401v-491q0 -284 -111 -401h1q-109 -115 -383 -115h-139zM756 170q113 0 161 14h-1q50 16 80 47q32 32 42 80q6 25 9.5 72.5t3.5 116.5v485
q0 70 -3.5 117t-9.5 72q-11 49 -42 81q-17 16 -37.5 28t-46.5 20q-51 14 -156 14h-127q-113 0 -164 -14q-45 -13 -76 -46q-14 -16 -25.5 -36.5t-17.5 -45.5t-9.5 -72.5t-3.5 -117.5v-483q0 -69 3.5 -117t9.5 -74q6 -24 17.5 -44.5t25.5 -35.5q16 -17 35 -28t42 -19h-1
q50 -14 164 -14h127z" />
    <glyph glyph-name="one" unicode="1" horiz-adv-x="1384" 
d="M707 0v1276q-78 -79 -161 -161.5t-160 -160.5l-126 126l408 407h236v-1487h-197z" />
    <glyph glyph-name="two" unicode="2" horiz-adv-x="1384" 
d="M145 0v265q0 57 4.5 103t14.5 80q19 70 61 122q41 49 101 81q29 14 79.5 32t116.5 36q81 23 163.5 45t163.5 45q145 39 180 90q12 16 16 47q6 34 6 134q0 51 -3.5 86t-9.5 55q-5 17 -15.5 32.5t-24.5 25.5q-29 19 -113 28.5t-233 9.5q-203 0 -255 -43q-48 -38 -48 -179
v-105h-204v115q0 225 109 313q54 45 156 66t253 21q81 0 147 -2.5t108 -6.5t76 -11t57 -18q54 -25 95 -58t61 -73q43 -83 43 -271q0 -211 -65 -297q-30 -42 -92.5 -76t-148.5 -60q-100 -29 -202.5 -57t-202.5 -56q-125 -37 -158 -74q-32 -36 -32 -115v-139h901v-191h-1105z
" />
    <glyph glyph-name="three" unicode="3" horiz-adv-x="1384" 
d="M141 519h200v-149q0 -119 59 -157q66 -43 305 -43q169 0 235 17q28 8 51 21t36 30q10 17 16 61q6 45 6 161q0 126 -48 164q-50 39 -185 39h-241v187h221q135 0 182 44v-1q46 46 46 197q0 104 -11 139q-5 15 -13 28t-20 22q-22 19 -94.5 27.5t-210.5 8.5q-202 0 -257 -37
q-51 -33 -51 -133v-151h-200v147q0 97 30 167.5t87 112.5q57 40 156 62t231 22q86 0 150.5 -2.5t106.5 -7.5t77.5 -13.5t60.5 -20.5q42 -21 75 -52t51 -71q17 -39 26.5 -98.5t9.5 -140.5q0 -91 -11.5 -153.5t-36.5 -99.5q-36 -54 -104 -80q47 -15 73.5 -35t47.5 -50
q54 -72 54 -237q0 -50 -2 -91t-7 -75.5t-12.5 -63t-17.5 -53.5q-44 -99 -151 -141q-105 -38 -352 -38q-116 0 -194 4.5t-122 15.5q-43 11 -78.5 28t-62.5 43h1q-58 53 -85 128t-27 185v133z" />
    <glyph glyph-name="four" unicode="4" horiz-adv-x="1384" 
d="M110 337v212l719 938h252v-958h220v-192h-220v-337h-201v337h-770zM326 529h554v723z" />
    <glyph glyph-name="five" unicode="5" horiz-adv-x="1384" 
d="M136 463h201v-115q0 -103 57 -140h-1q64 -38 287 -38h50q121 0 172 18q25 8 46 23.5t38 35.5q18 20 26 57q5 20 7 53t2 79v66q0 54 -1.5 94.5t-5.5 66.5q-8 49 -23 81q-27 55 -88 78q-66 24 -215 24q-197 0 -262 -29q-60 -25 -64 -110h-198v780h996v-192h-797v-346
q19 18 40 30t46 21q38 14 102 19.5t157 5.5q82 0 142 -4t99 -13t74.5 -25.5t62.5 -36.5q36 -31 63.5 -71t43.5 -86v1q16 -46 23.5 -116.5t7.5 -165.5q0 -181 -25 -269v1q-26 -92 -86 -148q-32 -29 -70.5 -50.5t-84.5 -34.5q-43 -13 -110 -19t-158 -6q-225 0 -318 27
q-94 25 -153 93q-41 49 -62 112t-21 136v113z" />
    <glyph glyph-name="six" unicode="6" horiz-adv-x="1384" 
d="M151 1090q0 225 103 321q105 94 343 94h225q229 0 329 -79q105 -80 105 -259v-97h-201v65q0 107 -54 140q-57 38 -273 38q-148 0 -220 -9q-65 -8 -94 -28q-32 -20 -51.5 -67t-19.5 -104v-279q41 44 99 67q45 17 119 25.5t173 8.5q280 0 395 -71q123 -75 123 -243v-263
q0 -220 -129 -303q-56 -38 -144 -52h1q-41 -8 -117 -11t-190 -3q-293 0 -407 98q-115 99 -115 345v666zM1053 567q0 104 -53 138q-29 19 -104 27.5t-198 8.5q-72 0 -126 -4t-92 -12q-71 -16 -99 -46q-11 -11 -17.5 -26.5t-11.5 -38.5q-11 -50 -11 -142q0 -89 7 -140t22 -69
q36 -47 102 -67h-1q71 -20 273 -20q201 0 257 36q52 33 52 148v207z" />
    <glyph glyph-name="seven" unicode="7" horiz-adv-x="1384" 
d="M169 1295v192h1079v-184l-706 -1303h-239l723 1295h-857z" />
    <glyph glyph-name="eight" unicode="8" horiz-adv-x="1384" 
d="M184 683q35 55 116 89q-67 30 -98 84q-43 71 -43 228q0 123 12 180q14 62 44 109q49 72 158 103q107 29 327 29q165 0 268 -19t151 -57q60 -51 85 -122v1q24 -68 24 -213q0 -81 -12 -142.5t-34 -99.5q-32 -55 -96 -83q38 -16 67 -37.5t46 -50.5q48 -75 48 -244
q0 -80 -5 -139t-16 -99q-22 -77 -75 -127q-28 -25 -68 -43t-91 -28t-129 -15t-187 -5q-214 0 -316 30q-103 30 -163 104q-17 20 -28.5 48t-19.5 63q-7 33 -9.5 84.5t-2.5 122.5q0 176 47 249zM690 172q69 0 121.5 3t87.5 8q30 5 54.5 13.5t38.5 19.5q31 25 41 62
q14 44 14 142q0 78 -8 121q-8 41 -23 63q-25 39 -85 55q-32 8 -92 12t-149 4q-75 0 -128.5 -3t-86.5 -8q-59 -9 -87 -32q-27 -23 -39 -68.5t-12 -125.5q0 -99 11 -146q8 -40 30 -61h-1q13 -14 38 -25t57 -19q73 -15 218 -15zM702 858q107 0 173.5 11t94.5 31q54 40 54 180
q0 41 -1.5 71t-5.5 49q-4 18 -9 31.5t-11 24.5q-11 16 -33 27t-59 18t-90.5 10.5t-126.5 3.5q-65 0 -114.5 -2.5t-84.5 -8t-58 -14.5t-36 -22q-18 -18 -25 -51q-9 -39 -9 -146q0 -133 55 -172q58 -41 286 -41z" />
    <glyph glyph-name="nine" unicode="9" horiz-adv-x="1384" 
d="M1213 394q0 -226 -103 -320q-100 -93 -343 -93h-225q-230 0 -330 76q-104 81 -104 259v97h201v-65q0 -107 54 -141q60 -37 273 -37q148 0 219 9h-1q67 11 96 28q16 10 29 27.5t22.5 40t14.5 49t5 54.5v283q-39 -45 -100 -70q-45 -17 -119 -25.5t-174 -8.5q-276 0 -396 70
q-120 75 -120 243v265q0 217 129 302q29 17 67 31.5t81 21.5q84 15 300 15q292 0 408 -99q116 -98 116 -345v-667zM311 916q0 -103 53 -138q58 -36 302 -36q145 0 218 16q34 8 59 19t39 28q19 19 28 62q11 50 11 145q0 91 -7 141t-21 67q-20 25 -46 41.5t-59 27.5
q-35 11 -103 15.5t-168 4.5q-199 0 -255 -37q-51 -33 -51 -148v-208z" />
    <glyph glyph-name="colon" unicode=":" horiz-adv-x="692" 
d="M241 811v252h210v-252h-210zM241 0v250h210v-250h-210z" />
    <glyph glyph-name="semicolon" unicode=";" horiz-adv-x="692" 
d="M241 0v250h210v-274q0 -87 -55 -134t-155 -47v126q38 4 55 16.5t17 38.5v24h-72zM241 811v252h210v-252h-210z" />
    <glyph glyph-name="less" unicode="&#x3c;" horiz-adv-x="1706" 
d="M1445 1004l-960 -391q239 -97 480.5 -194.5t479.5 -193.5v-149l-1184 483v107l1184 488v-150z" />
    <glyph glyph-name="equal" unicode="=" horiz-adv-x="1706" 
d="M1455 862v-134h-1204v134h1204zM1455 499v-134h-1204v134h1204z" />
    <glyph glyph-name="greater" unicode="&#x3e;" horiz-adv-x="1706" 
d="M1445 666v-107l-1184 -483v149l959 388q-239 97 -480 195.5t-479 195.5v149z" />
    <glyph glyph-name="question" unicode="?" horiz-adv-x="1063" 
d="M368 397v134q0 95 44 151q43 57 197 124l3 1q2 1 4.5 2t4.5 2q66 29 107.5 53.5t55.5 44.5h-1q17 25 25 73.5t8 124.5q0 126 -42 167q-42 43 -172 43q-72 0 -125.5 -2t-85.5 -6q-54 -6 -76 -22q-24 -20 -35.5 -65t-11.5 -127q0 -17 0.5 -29t0.5 -21v-45h-198v164
q0 185 109 264q107 77 373 77q133 0 222.5 -21.5t138.5 -66.5h-1q98 -86 98 -314q0 -183 -40 -275q-41 -92 -144 -138h1q-14 -7 -34.5 -16t-46.5 -20q-84 -38 -131.5 -80.5t-47.5 -84.5v-92h-200zM368 0v224h200v-224h-200z" />
    <glyph glyph-name="at" unicode="@" horiz-adv-x="2048" 
d="M1336 974h129l-141 -571l1 1q-5 -22 -8 -36.5t-5 -24t-3 -15.5t-1 -10q0 -33 22.5 -51.5t62.5 -18.5q46 0 96.5 20t96.5 56q43 36 78.5 85.5t60.5 108.5t39 125.5t14 138.5q0 238 -186 391q-94 78 -214 116t-268 38q-165 0 -303.5 -47.5t-250.5 -141.5
q-137 -119 -209.5 -276t-72.5 -344q0 -165 57 -289t174 -219v1q97 -78 231.5 -122t285.5 -44q165 0 324 50t299 146l60 -85q-306 -231 -663 -231q-382 0 -617 184q-155 117 -229 272t-74 361q0 204 85 379.5t251 312.5q132 109 296 164t358 55q161 0 305 -43
q72 -23 134.5 -54t113.5 -70q127 -99 194 -229t67 -281q0 -171 -62 -309.5t-182 -233.5q-72 -54 -151.5 -82.5t-162.5 -28.5q-183 0 -204 132q-51 -65 -118.5 -98.5t-148.5 -33.5q-160 0 -242 85t-82 253q0 233 136 390q137 161 334 161q175 0 249 -133zM1245 716
q-17 83 -67 128.5t-122 45.5q-140 0 -232 -122q-94 -125 -94 -317q0 -99 48 -154t134 -55q47 0 91 17.5t80 46.5q77 68 103 175z" />
    <glyph glyph-name="A" unicode="A" horiz-adv-x="1417" 
d="M13 0l550 1487h291l553 -1487h-208l-138 371h-704q-33 -91 -68.5 -185.5t-67.5 -185.5h-208zM424 553h571q-69 189 -136.5 371t-137.5 371h-25z" />
    <glyph glyph-name="B" unicode="B" horiz-adv-x="1436" 
d="M180 0v1487h693q244 0 323 -75q83 -77 83 -305q0 -82 -11 -145t-29 -101q-28 -52 -89 -82q79 -33 116 -95q49 -79 49 -260q0 -248 -101 -336q-100 -88 -391 -88h-643zM376 191h509q139 0 181 39q43 40 43 216q0 147 -49 187q-48 42 -275 42h-409v-484zM376 862h503
q118 0 158 40q38 40 38 188q0 137 -40 171q-43 34 -226 34h-433v-433z" />
    <glyph glyph-name="C" unicode="C" horiz-adv-x="1399" 
d="M129 989q0 286 112 401t390 115h170q276 0 388 -99q115 -99 115 -333v-83h-205v60q0 156 -60 210q-61 55 -250 55h-112q-65 0 -111.5 -4t-75.5 -11q-53 -15 -90 -50q-37 -36 -52 -87q-7 -28 -10.5 -81t-3.5 -133v-412q0 -155 14 -213q14 -52 52 -88q35 -34 87 -49
q26 -8 74 -11.5t116 -3.5h112q192 0 253 58q60 57 60 228q0 27 -1 51.5t-2 37.5h205v-115q0 -250 -112 -350h1q-109 -100 -392 -100h-170q-278 0 -390 115t-112 401v491z" />
    <glyph glyph-name="D" unicode="D" horiz-adv-x="1536" 
d="M177 0v1487h719q280 0 396 -113q116 -114 116 -390v-478q0 -277 -117 -392q-116 -114 -395 -114h-719zM376 182h494q202 0 266 65q66 66 66 257v468q0 202 -66 267q-63 66 -266 66h-494v-1123z" />
    <glyph glyph-name="E" unicode="E" horiz-adv-x="1309" 
d="M175 0v1487h1055v-192h-857v-435h833v-187h-833v-482h857v-191h-1055z" />
    <glyph glyph-name="F" unicode="F" horiz-adv-x="1214" 
d="M173 0v1487h944v-192h-745v-435h722v-187h-722v-673h-199z" />
    <glyph glyph-name="G" unicode="G" horiz-adv-x="1503" 
d="M121 989q0 285 120 401q121 115 421 115h183q278 0 409.5 -96t131.5 -298v-81h-204v37q0 141 -68 193q-71 55 -278 55h-128q-75 0 -126.5 -4t-82.5 -11q-62 -15 -103 -52q-38 -32 -54 -87v1q-7 -29 -11 -82t-4 -131v-412q0 -78 4 -130t11 -81v1q16 -55 54 -88
q44 -38 101 -51q30 -8 82.5 -12t128.5 -4h128q136 0 190 14q26 7 49.5 18t42.5 28q34 31 48 80q8 27 12 75t4 117v70h-402v186h606v-262q0 -287 -120 -402q-120 -114 -421 -114h-183q-301 0 -421 114q-120 115 -120 402v491z" />
    <glyph glyph-name="H" unicode="H" horiz-adv-x="1546" 
d="M177 0v1487h198v-625h796v625h198v-1487h-198v671h-796v-671h-198z" />
    <glyph glyph-name="I" unicode="I" horiz-adv-x="526" 
d="M163 0v1487h200v-1487h-200z" />
    <glyph glyph-name="J" unicode="J" horiz-adv-x="1208" 
d="M41 547h200v-43q0 -110 12.5 -178.5t35.5 -97.5q45 -56 198 -56h115q154 0 199 56q23 29 35.5 97.5t12.5 178.5v983h199v-1031q0 -251 -100 -362q-100 -112 -332 -112h-143q-121 0 -204 29t-133 86q-95 116 -95 401v49z" />
    <glyph glyph-name="K" unicode="K" horiz-adv-x="1370" 
d="M177 0v1487h199v-613h96q147 152 294.5 306.5t293.5 306.5h264l-686 -711q93 -93 190.5 -191t196.5 -197t196.5 -197t189.5 -191h-274l-665 679h-96v-679h-199z" />
    <glyph glyph-name="L" unicode="L" horiz-adv-x="1223" 
d="M174 0v1487h197v-1296h821v-191h-1018z" />
    <glyph glyph-name="M" unicode="M" horiz-adv-x="1919" 
d="M182 0v1487h296l483 -1255q120 315 239 628t239 627h298v-1487h-198v1226q-117 -307 -234 -613.5t-233 -612.5h-225l-467 1225v-1225h-198z" />
    <glyph glyph-name="N" unicode="N" horiz-adv-x="1587" 
d="M177 0v1487h277l755 -1243v1243h199v-1487h-277l-755 1245v-1245h-199z" />
    <glyph glyph-name="O" unicode="O" horiz-adv-x="1526" 
d="M131 989q0 285 120 401q121 115 422 115h182q303 0 423 -114v1q119 -114 119 -403v-491q0 -286 -121 -402q-120 -114 -421 -114h-182q-302 0 -422 114q-120 115 -120 402v491zM718 1315q-76 0 -128.5 -4t-82.5 -11q-58 -15 -101 -52q-39 -33 -54 -90q-17 -60 -17 -210
v-411q0 -73 4.5 -126t12.5 -83q8 -26 22.5 -49.5t31.5 -39.5q44 -38 101 -51q30 -8 82.5 -12t128.5 -4h90q76 0 129 4t83 12q60 13 102 51q38 34 53 87q8 29 12 81t4 130v412q0 77 -4 129t-12 82q-17 57 -55 90q-20 17 -45.5 29.5t-54.5 20.5q-30 7 -83 11t-129 4h-90z" />
    <glyph glyph-name="P" unicode="P" horiz-adv-x="1341" 
d="M175 0v1487h629q251 0 348 -76q100 -79 100 -274v-219q0 -200 -99 -279h1q-97 -77 -350 -77h-431v-562h-198zM1046 1131q0 94 -43 129q-44 35 -200 35h-430v-541h430q78 0 127.5 9.5t72.5 26.5q43 33 43 128v213z" />
    <glyph glyph-name="Q" unicode="Q" horiz-adv-x="1526" 
d="M131 989q0 286 121 401q120 115 421 115h183q302 0 422 -114v1q120 -114 120 -403v-491q0 -66 -5.5 -121t-13.5 -92q-8 -30 -20 -58t-29 -49l89 -88l-133 -136l-93 94q-20 -17 -48 -29t-59 -20q-73 -17 -230 -17h-183q-303 0 -421 114q-121 115 -121 402v491zM1191 949
q0 153 -16 211q-17 58 -55 90q-20 17 -45.5 29.5t-54.5 20.5q-30 7 -83 11t-129 4h-89q-77 0 -129.5 -4t-82.5 -11q-56 -15 -101 -52q-37 -31 -54 -90q-17 -60 -17 -210v-411q0 -73 4.5 -126t12.5 -83q8 -26 22.5 -49.5t31.5 -39.5q22 -18 47 -31t54 -20q30 -8 82.5 -12
t129.5 -4h125q113 0 167 6q14 2 26 3.5t21 3.5q-65 64 -134.5 133.5l-132.5 132.5l129 132l263 -259q4 38 6 83.5t2 96.5v445z" />
    <glyph glyph-name="R" unicode="R" horiz-adv-x="1432" 
d="M176 0v1487h673q250 0 347 -76q100 -79 100 -274v-219q0 -202 -140 -260q63 -28 96 -77q44 -67 44 -213v-368h-206v318q0 151 -45 197q-42 49 -177 49h-494v-564h-198zM374 1295v-541h443q174 0 224 40q49 40 49 146v169q0 107 -48 146q-25 20 -80.5 30t-144.5 10h-443z
" />
    <glyph glyph-name="S" unicode="S" horiz-adv-x="1460" 
d="M136 511h200v-47q0 -65 5 -110.5t13 -74.5q17 -51 56 -75q17 -8 42.5 -15t57.5 -11q38 -4 113 -6t186 -2q118 0 183 15t95 48q16 17 23.5 60t7.5 119q0 152 -29 189q-27 36 -115 43l-446 35q-208 16 -290 107q-42 45 -62 119.5t-20 178.5q0 127 28.5 209.5t85.5 135.5
q48 42 131 59q40 8 109.5 12.5t172.5 4.5h52q226 0 318 -22q96 -24 160 -78q89 -77 89 -276q0 -28 -1 -52.5t-2 -36.5h-199v55q0 76 -8 115t-25 57q-27 26 -98 36q-77 12 -290 12q-109 0 -175.5 -11t-92.5 -34q-51 -48 -51 -188q0 -59 8.5 -99t24.5 -62v1q17 -20 49.5 -32.5
t82.5 -15.5l455 -38q187 -17 264 -106q76 -91 76 -290q0 -72 -4 -127t-15 -92q-21 -76 -65 -127q-28 -30 -66.5 -53.5t-85.5 -35.5q-47 -13 -128.5 -18.5t-200.5 -5.5h-72q-101 0 -172.5 5t-116.5 16t-81.5 29.5t-65.5 45.5h1q-58 49 -85 132.5t-27 210.5v91z" />
    <glyph glyph-name="T" unicode="T" horiz-adv-x="1069" 
d="M-27 1295v192h1123v-192h-463v-1295h-199v1295h-461z" />
    <glyph glyph-name="U" unicode="U" horiz-adv-x="1532" 
d="M163 1487h200v-969q0 -138 14 -191v1q8 -25 19.5 -45t28.5 -36h-1q35 -32 84 -46q25 -5 70.5 -8.5t111.5 -3.5h152q66 0 112 3.5t71 8.5q23 7 45 19t40 27h-1q17 16 28 35.5t18 43.5q14 53 14 192v969h200v-989q0 -285 -116 -401q-114 -115 -399 -115h-176
q-286 0 -400 115q-115 115 -115 401v989z" />
    <glyph glyph-name="V" unicode="V" horiz-adv-x="1331" 
d="M-9 1487h214l448 -1259q112 315 225 630t225 629h213l-545 -1487h-235z" />
    <glyph glyph-name="W" unicode="W" horiz-adv-x="2062" 
d="M62 1487h205l317 -1197q79 300 159 600t159 597h256l321 -1197q78 299 158 599.5t158 597.5h207l-406 -1487h-234l-332 1220q-81 -304 -163 -610.5t-163 -609.5h-242z" />
    <glyph glyph-name="X" unicode="X" horiz-adv-x="1305" 
d="M-35 0l582 780q-63 85 -129.5 174.5t-133.5 179.5t-133.5 179t-129.5 174h233l399 -554q97 137 198 277.5t199 276.5h236l-527 -705q70 -95 143 -193.5t146.5 -197.5t146.5 -198t143 -193h-231l-452 631l-230 -316t-228 -315h-232z" />
    <glyph glyph-name="Y" unicode="Y" horiz-adv-x="1219" 
d="M707 0h-196v654q-75 100 -153 205.5t-157 211.5t-157 211t-152 205h237l479 -661q119 165 240 331.5t239 329.5h238l-618 -830v-657z" />
    <glyph glyph-name="Z" unicode="Z" horiz-adv-x="1331" 
d="M92 0v199l909 1106h-867v182h1097v-195l-904 -1101h904v-191h-1139z" />
    <glyph glyph-name="bracketleft" unicode="[" horiz-adv-x="664" 
d="M138 1487h454v-192h-260v-1102h260v-193h-454v1487z" />
    <glyph glyph-name="backslash" unicode="\" horiz-adv-x="545" 
d="M638 -185h-177l-527 1690h178z" />
    <glyph glyph-name="bracketright" unicode="]" horiz-adv-x="664" 
d="M526 1487v-1487h-454v193h259v1102h-259v192h454z" />
    <glyph glyph-name="asciicircum" unicode="^" horiz-adv-x="2048" 
d="M1100 1457l552 -580h-191l-437 434q-109 -108 -219.5 -217.5t-219.5 -216.5h-192l555 580h152z" />
    <glyph glyph-name="underscore" unicode="_" horiz-adv-x="1024" 
d="M1030 -334v-136h-1036v136h1036z" />
    <glyph glyph-name="grave" unicode="`" horiz-adv-x="1024" 
d="M533 1146l-292 377h198l227 -377h-133z" />
    <glyph glyph-name="a" unicode="a" horiz-adv-x="1157" 
d="M833 71q-43 -45 -116.5 -65t-189.5 -20q-247 0 -335 73q-88 75 -88 271q0 57 5 100.5t15.5 77t27 59t40.5 45.5q44 36 117 49q36 6 88.5 9.5t121.5 3.5t124.5 -6.5t93.5 -17.5q24 -8 46.5 -18.5t39.5 -25.5v127q0 116 -41 146q-45 34 -233 34q-67 0 -112 -7t-66 -21
q-38 -23 -40 -114h-189v43q0 142 93 204q91 59 305 59q82 0 144.5 -3.5t105.5 -10.5q45 -6 78.5 -18t55.5 -29q49 -40 70 -96q19 -53 19 -184v-736h-176zM823 388q0 63 -69.5 92.5t-222.5 29.5q-140 0 -188 -34q-42 -32 -42 -128q0 -110 45 -146q25 -17 75 -26.5t126 -9.5
q134 0 205 29.5t71 84.5v108z" />
    <glyph glyph-name="b" unicode="b" horiz-adv-x="1176" 
d="M157 0v1487h189v-522q48 54 121.5 83t178.5 29q229 0 322 -96q96 -98 96 -328v-243q0 -231 -96 -327q-93 -97 -322 -97q-113 0 -186.5 27.5t-118.5 89.5v-103h-184zM346 448q0 -150 70 -218t224 -68q141 0 183 47q45 48 45 235v175q0 186 -45 234q-44 48 -183 48
q-154 0 -224 -68t-70 -218v-167z" />
    <glyph glyph-name="c" unicode="c" horiz-adv-x="1157" 
d="M544 -14q-238 0 -335 96q-97 94 -97 328v243q0 234 96 329q98 95 334 95h71q110 0 192 -23.5t133 -65.5q49 -45 77 -122.5t30 -183.5l-195 -1q-5 135 -50 176q-45 42 -187 42h-71q-147 0 -191 -47q-22 -23 -32 -81.5t-10 -151.5v-175q0 -189 43 -235q44 -47 190 -47h71
q142 0 189 45q47 44 47 173v37h196v-39q0 -210 -102 -301q-100 -91 -328 -91h-71z" />
    <glyph glyph-name="d" unicode="d" horiz-adv-x="1176" 
d="M834 101q-45 -58 -119 -86.5t-184 -28.5q-227 0 -323 97q-96 99 -96 327v243q0 229 96 327q96 97 323 97q63 0 117 -11.5t92 -28.5q49 -25 89 -72v522h190v-1487h-185v101zM829 615q0 150 -70 218t-223 68q-141 0 -184 -48v1q-44 -49 -44 -235v-175q0 -186 44 -235v1
q43 -48 184 -48q153 0 223 68t70 218v167z" />
    <glyph glyph-name="e" unicode="e" horiz-adv-x="1157" 
d="M544 -14q-238 0 -335 96q-97 94 -97 328v243q0 234 96 329q98 95 334 95h71q237 0 335 -95q97 -96 97 -329v-174l-737 -1q-1 -12 -1 -28.5v-39.5q0 -152 45 -200t190 -48h71q130 0 179 35q47 36 56 143h196q-13 -196 -116 -276q-99 -78 -313 -78h-71zM309 651h540v20
q0 137 -45 182q-46 46 -191 46h-71q-143 0 -189 -46q-44 -44 -44 -182v-20z" />
    <glyph glyph-name="f" unicode="f" horiz-adv-x="688" 
d="M36 895v168h143v1q0 9 -0.5 21t-0.5 28q0 200 73 288q74 86 253 86q85 0 189 -9v-180q-22 5 -28 5.5t-9 0.5q-4 0 -8.5 0.5t-9.5 0.5q-11 0 -22 0.5t-20 0.5q-18 1 -30 1h-20q-111 0 -144 -32q-32 -27 -32 -162v-50h323v-168h-323v-895h-190v895h-144z" />
    <glyph glyph-name="g" unicode="g" horiz-adv-x="1204" 
d="M1049 1063v-1032q0 -233 -94 -328q-95 -95 -325 -95h-70q-207 0 -305 77q-99 78 -114 276h193q12 -107 55 -140q47 -35 173 -35h68q62 0 105.5 9.5t71.5 29.5t40.5 52t12.5 76v145q-47 -54 -120.5 -83t-179.5 -29q-228 0 -322 97q-95 97 -95 327v243q0 230 95 328
q94 96 322 96q112 0 186 -28.5t119 -90.5v105h184zM860 615q0 150 -70 218t-224 68q-139 0 -185 -49q-45 -48 -45 -233v-175q0 -186 45 -234t185 -48q154 0 224 68t70 218v167z" />
    <glyph glyph-name="h" unicode="h" 
d="M154 0v1487h184v-516q90 106 315 106q212 0 296 -88q87 -86 87 -298v-691h-191v659q0 151 -43 197q-41 45 -168 45q-150 0 -220 -68.5t-70 -217.5v-615h-190z" />
    <glyph glyph-name="i" unicode="i" horiz-adv-x="479" 
d="M145 0v1063h189v-1063h-189zM145 1277v210h189v-210h-189z" />
    <glyph glyph-name="j" unicode="j" horiz-adv-x="508" 
d="M366 -130q0 -262 -227 -262q-17 0 -40 2t-51 6l-1 156h72q29 0 40 24q15 28 15 155v1112h192v-1193zM174 1277v210h192v-210h-192z" />
    <glyph glyph-name="k" unicode="k" horiz-adv-x="991" 
d="M154 0v1487h189v-823h19q82 99 167.5 200t167.5 199h223l-403 -475q57 -70 117.5 -144.5t122 -150t122 -150t117.5 -143.5h-243l-392 486h-18v-486h-189z" />
    <glyph glyph-name="l" unicode="l" horiz-adv-x="479" 
d="M145 0v1487h189v-1487h-189z" />
    <glyph glyph-name="m" unicode="m" horiz-adv-x="1810" 
d="M185 0v1063h186v-87q85 101 287 101q124 0 199 -35t117 -110q47 78 120.5 111.5t187.5 33.5q210 0 293 -86t83 -300v-691h-190v643q0 162 -41 211q-38 47 -157 47q-132 0 -192 -68t-60 -218v-615h-186v713q0 115 -38 150q-40 38 -155 38q-136 0 -200 -69.5t-64 -216.5
v-615h-190z" />
    <glyph glyph-name="n" unicode="n" 
d="M154 0v1063h184v-92q90 106 315 106q212 0 296 -88q87 -86 87 -298v-691h-191v659q0 151 -43 197q-41 45 -168 45q-150 0 -220 -69t-70 -217v-615h-190z" />
    <glyph glyph-name="o" unicode="o" horiz-adv-x="1157" 
d="M544 -14q-238 0 -335 96q-97 94 -97 328v243q0 234 96 329q98 95 334 95h71q237 0 335 -95q97 -96 97 -329v-243q0 -235 -97 -329q-98 -95 -333 -95h-71zM849 619q0 185 -44 232q-45 48 -192 48h-71q-147 0 -191 -47q-22 -23 -32 -81.5t-10 -151.5v-175q0 -189 43 -235
q44 -47 190 -47h71q147 0 192 48q44 47 44 234v175z" />
    <glyph glyph-name="p" unicode="p" horiz-adv-x="1176" 
d="M157 1063h184v-105q45 62 119 90.5t186 28.5q229 0 322 -96q96 -98 96 -328v-243q0 -231 -96 -327q-93 -97 -322 -97q-105 0 -178.5 29t-121.5 83v-490h-189v1455zM346 448q0 -150 70 -218t224 -68q141 0 183 47q45 48 45 235v175q0 186 -45 234q-44 48 -183 48
q-154 0 -224 -68t-70 -218v-167z" />
    <glyph glyph-name="q" unicode="q" horiz-adv-x="1176" 
d="M1019 1063v-1455h-190v490q-38 -47 -89 -73q-39 -19 -91 -29t-118 -10q-227 0 -323 97q-96 99 -96 327v243q0 229 96 327q96 97 323 97q114 0 186.5 -27t116.5 -91v104h185zM829 615q0 150 -70 218t-223 68q-141 0 -184 -48v1q-44 -49 -44 -235v-175q0 -186 44 -235v1
q43 -48 184 -48q153 0 223 68t70 218v167z" />
    <glyph glyph-name="r" unicode="r" horiz-adv-x="958" 
d="M151 0v1063h186v-85q39 53 102.5 76t158.5 23q87 0 150 -23t99 -65q73 -87 73 -298v-28h-191v50q0 114 -34 151q-35 37 -133 37q-58 0 -99.5 -16t-68.5 -50.5t-39.5 -89t-12.5 -130.5v-615h-191z" />
    <glyph glyph-name="s" unicode="s" horiz-adv-x="1194" 
d="M116 343h193v-42q0 -84 49 -114h-1q52 -32 225 -32q190 0 231 32q38 30 38 123t-32 119q-16 14 -59 23.5t-115 13.5q-28 2 -65 3t-85 3q-209 6 -253 31v-1q-64 35 -92 97q-26 61 -26 168q0 180 95 246q91 64 392 64q236 0 321 -61h-1q91 -63 91 -237h-191v29q0 58 -48 76
q-53 25 -225 25q-162 0 -206 -29q-38 -24 -38 -113q0 -54 8 -78q6 -19 23 -27v1q20 -12 68 -18.5t124 -8.5q9 0 16.5 -0.5t13.5 -0.5h18.5t14.5 -1q129 -5 203 -14t109 -24q35 -17 63 -43t43 -55q14 -32 22.5 -76.5t8.5 -101.5q0 -59 -8 -103.5t-22 -76.5q-15 -31 -42.5 -59
t-65.5 -52q-36 -21 -114.5 -32t-212.5 -11q-279 0 -373 67q-95 67 -95 244v46z" />
    <glyph glyph-name="t" unicode="t" horiz-adv-x="1010" 
d="M49 895v168h125v231h191v-231h502v-168h-502v-545q0 -114 34 -152v1q34 -37 136 -37t134 35q34 38 34 153v50h192v-28q0 -224 -78 -305t-310 -81q-185 0 -260 86q-73 87 -73 300v523h-125z" />
    <glyph glyph-name="u" unicode="u" 
d="M1028 1063v-1063h-185v91q-46 -55 -124 -80t-193 -25q-208 0 -295 87q-87 89 -87 299v691h190v-659q0 -151 43 -197q42 -45 171 -45q150 0 218.5 68.5t68.5 217.5v615h193z" />
    <glyph glyph-name="v" unicode="v" horiz-adv-x="967" 
d="M-1 1063h194l290 -839q72 208 145.5 419.5t145.5 419.5h189l-366 -1063h-225z" />
    <glyph glyph-name="w" unicode="w" horiz-adv-x="1597" 
d="M54 1063h182l220 -826q55 207 110.5 414.5t109.5 411.5h239l223 -826q54 207 110 414.5t110 411.5h185l-288 -1063h-238l-221 825q-56 -205 -112 -413t-112 -412h-234z" />
    <glyph glyph-name="x" unicode="x" horiz-adv-x="1036" 
d="M10 0l402 567q-42 59 -86.5 122t-89.5 126.5t-89.5 126t-86.5 121.5h220l236 -343q58 85 118.5 171.5t117.5 171.5h219l-348 -495q48 -67 99 -139t103 -145t102.5 -145t98.5 -139h-219l-291 417q-70 -103 -142 -208.5t-142 -208.5h-222z" />
    <glyph glyph-name="y" unicode="y" horiz-adv-x="999" 
d="M32 1063h194l290 -839q71 209 144.5 420t144.5 419h191l-395 -1140q-65 -185 -135 -252q-70 -70 -189 -70q-18 0 -42 2.5t-58 7.5l1 171q14 -2 30 -3t36 -1q62 0 95 27q36 30 67 115l28 80h-31z" />
    <glyph glyph-name="z" unicode="z" horiz-adv-x="1057" 
d="M111 0v192l610 692h-580v179h828v-168l-632 -719h632v-176h-858z" />
    <glyph glyph-name="braceleft" unicode="{" horiz-adv-x="1024" 
d="M864 1333h-55q-118 0 -158 -43t-40 -185v-235q0 -82 -12 -144t-33 -99q-18 -27 -45.5 -52t-62.5 -40q38 -17 63.5 -39t44.5 -51q45 -75 45 -245v-234q0 -144 39 -186q37 -42 151 -42q3 0 7.5 0.5t10.5 0.5q8 1 22.5 1h22.5v-143h-65q-199 0 -273 77q-73 76 -73 302v237
q0 143 -51 199q-50 54 -175 54q-3 0 -7.5 -0.5t-10.5 -0.5q-8 -1 -22.5 -1h-22.5v145h24t21 -1q6 0 10.5 -0.5t7.5 -0.5q125 0 175 55q51 55 51 198v235q0 226 74 303q73 78 272 78h65v-143z" />
    <glyph glyph-name="bar" unicode="|" horiz-adv-x="1024" 
d="M585 1561v-2031h-144v2031h144z" />
    <glyph glyph-name="braceright" unicode="}" horiz-adv-x="1024" 
d="M573 860q0 -143 51 -198q50 -55 175 -55q3 0 7.5 0.5t10.5 0.5q8 1 22.5 1h22.5v-145h-24t-21 1q-6 0 -10.5 0.5t-7.5 0.5q-126 0 -175 -54q-51 -56 -51 -199v-237q0 -225 -74 -302h1q-72 -77 -273 -77h-65v143h57q120 0 156 41q40 43 40 185v234q0 175 44 247
q17 28 45 49.5t65 38.5q-75 34 -110 90q-23 36 -33.5 97.5t-10.5 147.5v235q0 146 -39 188q-38 42 -151 42q-3 0 -7.5 -0.5t-10.5 -0.5q-8 -1 -22.5 -1h-22.5v143h65q198 0 272 -78q74 -77 74 -303v-235z" />
    <glyph glyph-name="asciitilde" unicode="~" horiz-adv-x="1706" 
d="M1531 629q-106 -75 -204 -111.5t-192 -36.5q-51 0 -115.5 13.5t-144.5 42.5q-15 7 -25 10q2 -1 -1 -1l-17 7q-80 29 -147.5 45t-111.5 16q-39 0 -81.5 -10t-90.5 -31.5t-103.5 -54t-120.5 -77.5v156q110 77 207.5 114t188.5 37q53 0 120.5 -14.5t150.5 -45.5q7 -4 14 -6
q2 -1 3 -1t3 -1t3 -1t2 -1q10 -4 22 -8q160 -57 244 -57q39 0 82 10t91.5 31t103.5 54t119 79v-158z" />
    <glyph glyph-name="nonbreakingspace" unicode="&#xa0;" horiz-adv-x="1384" 
 />
    <glyph glyph-name="currency" unicode="&#xa4;" horiz-adv-x="1384" 
d="M1254 497q0 -280 -110 -397q-109 -118 -342 -118h-87q-278 0 -390 115t-112 401v22h-184l53 158h131v137h-184l52 159h132v15q0 286 112 401t390 115h87q452 0 452 -465h-204q0 163 -61 221q-59 56 -213 56h-101q-149 0 -203 -60q-55 -61 -55 -245v-38h659l-52 -159h-607
v-137h564l-53 -158h-511v-54q0 -172 54 -235q55 -61 204 -61h101q153 0 213 57q61 58 61 270h204z" />
    <glyph glyph-name="brokenbar" unicode="&#xa6;" horiz-adv-x="1024" 
d="M585 1432v-776h-144v776h144zM585 436v-776h-144v776h144z" />
    <glyph glyph-name="section" unicode="&#xa7;" horiz-adv-x="1118" 
d="M331 318v-67q0 -53 34 -71q22 -11 69 -16t119 -5q73 0 121 6t68 17q33 24 33 88q0 48 -17 72.5t-59 36.5l-363 118q-74 24 -128 51.5t-86 57.5q-65 64 -65 163q0 85 46.5 145.5t133.5 89.5q-55 32 -78.5 84t-23.5 139q0 157 88 218h-1q43 31 122.5 45.5t196.5 14.5
q201 0 288 -55q92 -58 92 -191v-65h-192v42q0 53 -34 72q-39 21 -166 21q-139 0 -171 -20q-27 -15 -27 -71q0 -42 19.5 -65t60.5 -38q106 -34 217.5 -70t217.5 -71q215 -70 215 -256q0 -98 -67 -165q-45 -46 -112 -66q35 -24 55 -59q34 -59 34 -176q0 -162 -88 -227
q-86 -63 -322 -63q-237 0 -327 54q-95 56 -95 195v87h192zM441 931q-92 -17 -140.5 -51t-48.5 -79q0 -42 34.5 -73.5t107.5 -54.5l283 -91q92 18 140.5 52t48.5 79q0 41 -34 71t-108 54z" />
    <glyph glyph-name="copyright" unicode="&#xa9;" horiz-adv-x="1706" 
d="M852 1455q149 0 282.5 -55t238.5 -160q103 -103 157.5 -235.5t54.5 -281.5q0 -151 -53 -281t-159 -233q-108 -106 -241.5 -162.5t-279.5 -56.5t-278 55.5t-238 161.5q-106 105 -160.5 237t-54.5 279q0 145 56.5 278.5t162.5 242.5q103 103 233 157t279 54zM1468 723
q0 125 -45.5 237t-131.5 198q-89 88 -201 134.5t-238 46.5q-125 0 -235 -45t-196 -132q-89 -91 -136 -203.5t-47 -235.5t46.5 -233.5t134.5 -199.5q89 -88 200 -134.5t233 -46.5q123 0 236.5 47t204.5 136q86 85 130.5 194t44.5 237zM1051 890q-17 78 -68.5 121t-126.5 43
q-110 0 -171 -87.5t-61 -245.5q0 -153 64 -241q59 -84 168 -84q80 0 135.5 49t70.5 134h150q-14 -152 -115 -235q-99 -81 -247 -81q-181 0 -286 125q-104 123 -104 339q0 204 109 330q111 126 291 126q137 0 231 -74q97 -77 111 -219h-151z" />
    <glyph glyph-name="guillemotleft" unicode="&#xab;" horiz-adv-x="981" 
d="M555 207h-217l-254 324l254 325h217l-257 -325zM896 207h-217l-253 324l253 325h217l-257 -325z" />
    <glyph glyph-name="logicalnot" unicode="&#xac;" horiz-adv-x="1706" 
d="M1455 874v-528h-132v391h-1072v137h1204z" />
    <glyph glyph-name="sfthyphen" unicode="&#xad;" horiz-adv-x="825" 
d="M121 472v175h583v-175h-583z" />
    <glyph glyph-name="registered" unicode="&#xae;" horiz-adv-x="1706" 
d="M852 1455q152 0 285 -54.5t236 -160.5q103 -103 157.5 -235.5t54.5 -281.5q0 -151 -53 -281t-159 -233q-108 -106 -241.5 -162.5t-279.5 -56.5q-148 0 -279 55.5t-237 161.5q-106 105 -160.5 237t-54.5 279q0 144 56.5 278.5t162.5 242.5q103 103 233 157t279 54z
M1468 721q0 128 -45 239.5t-130 197.5q-89 88 -201 134.5t-240 46.5q-123 0 -232 -45t-197 -132q-91 -92 -138 -204.5t-47 -234.5q0 -123 46.5 -233.5t134.5 -199.5q89 -88 200 -134.5t233 -46.5q123 0 236.5 47t204.5 136q86 85 130.5 193t44.5 236zM873 1164
q184 0 271.5 -59.5t87.5 -186.5q0 -91 -57 -157q-25 -26 -57 -45.5t-70 -28.5q22 -45 45.5 -94t47.5 -98.5t47.5 -97.5t44.5 -92h-184l-174 360h-159v-360h-163v859h320zM716 1042v-256h134q124 0 173 29h-1q44 29 44 95q0 71 -50.5 101.5t-165.5 30.5h-134z" />
    <glyph glyph-name="macron" unicode="&#xaf;" horiz-adv-x="1024" 
d="M243 1243v153h538v-153h-538z" />
    <glyph glyph-name="degree" unicode="&#xb0;" horiz-adv-x="674" 
d="M338 1451q121 0 203 -85q85 -85 85 -204q0 -120 -86 -206q-84 -85 -204 -85q-124 0 -205 84q-84 85 -84 207q0 120 85 205q87 84 206 84zM520 1162q0 75 -54 129q-52 53 -128 53q-77 0 -130 -53q-54 -54 -54 -129q0 -78 54 -130q53 -52 130 -52t129 52q53 53 53 130z" />
    <glyph glyph-name="plusminus" unicode="&#xb1;" horiz-adv-x="1706" 
d="M921 1176v-338h534v-135h-534v-338h-134v338h-536v135h536v338h134zM1455 185v-135h-1204v135h1204z" />
    <glyph glyph-name="acute" unicode="&#xb4;" horiz-adv-x="1024" 
d="M491 1146h-133l227 377h198z" />
    <glyph glyph-name="paragraph" unicode="&#xb6;" horiz-adv-x="1024" 
d="M948 1371h-124v-1371h-118v1371h-142v-1371h-121v762q-165 12 -263 103q-104 98 -104 254q0 161 111 260t291 99h470v-107z" />
    <glyph glyph-name="periodcentered" unicode="&#xb7;" horiz-adv-x="692" 
d="M211 793q0 55 40 94q39 40 95 40t95 -40q40 -39 40 -94t-40 -94q-38 -39 -95 -39t-95 39q-40 39 -40 94z" />
    <glyph glyph-name="guillemotright" unicode="&#xbb;" horiz-adv-x="981" 
d="M85 207l256 324q-30 37 -62.5 79t-66 84t-66 83.5t-61.5 78.5h217l253 -325l-253 -324h-217zM428 207l254 324q-29 37 -62 79t-66 85t-65.5 84t-60.5 77h215l254 -325l-254 -324h-215z" />
    <glyph glyph-name="divide" unicode="&#xf7;" horiz-adv-x="1706" 
d="M1455 680v-134h-1204v134h1204zM854 1081q48 0 87 -37q37 -37 37 -88q0 -26 -9.5 -48.5t-26.5 -39t-39.5 -26t-48.5 -9.5t-48.5 9.5t-39 26t-26 39t-9.5 48.5q0 52 36 88q39 37 87 37zM854 394q26 0 48.5 -9.5t39.5 -26t26.5 -39.5t9.5 -49t-9.5 -48t-26.5 -38.5
t-39.5 -26t-48.5 -9.5t-48.5 9.5t-39 26t-26 38.5t-9.5 48t9.5 48.5t26.5 39.5t39 26.5t48 9.5z" />
    <glyph glyph-name="dotaccent" unicode="&#x2d9;" horiz-adv-x="1024" 
d="M419 1215v208h186v-208h-186z" />
    <glyph glyph-name="ring" unicode="&#x2da;" horiz-adv-x="1024" 
d="M259 1346q0 107 73 181q74 74 180 74q105 0 180 -75q75 -74 75 -180t-74 -180q-76 -73 -181 -73q-53 0 -97.5 18.5t-82.5 54.5q-73 76 -73 180zM386 1346q0 -55 36 -90q36 -36 90 -36q51 0 90 37q36 36 36 89q0 54 -36 90q-38 36 -90 36q-54 0 -90 -36q-36 -35 -36 -90z
" />
    <glyph glyph-name="tilde" unicode="&#x2dc;" horiz-adv-x="1024" 
d="M819 1440q-61 -214 -212 -214q-31 0 -70 10l-92 28q-17 5 -26.5 7t-20.5 2q-21 0 -41.5 -18.5t-36.5 -51.5h-113q26 105 80.5 159.5t133.5 54.5q34 0 57 -8t47 -15.5t47 -14.5q11 -4 24 -6.5t24 -2.5q51 0 80 70h119z" />
    <glyph glyph-name="hungarumlaut" unicode="&#x2dd;" horiz-adv-x="1024" 
d="M541 1146l182 377h178l-246 -377h-114zM314 1146l162 377h176l-226 -377h-112z" />
    <glyph glyph-name="uni10A0" unicode="&#x10a0;" horiz-adv-x="1185" 
d="M310 545v-315q0 -79 75 -79h400q75 0 75 79l5 736q0 80 -75 80h-115q-320 0 -320 425h200q0 -250 118 -250h117q275 0 275 -255l-5 -736q0 -255 -275 -255h-400q-275 0 -275 255v315h200z" />
    <glyph glyph-name="uni10A1" unicode="&#x10a1;" horiz-adv-x="1170" 
d="M785 151q75 0 75 79v540q0 80 -75 80h-420q-55 0 -55 -80v-540q0 -79 75 -79h400zM110 770q0 255 263 255h135l20 123q0 100 -105 151.5t-105 210.5h251q1 -37 80 -127t69 -235l-10 -123h122q230 0 230 -255v-540q0 -255 -275 -255h-400q-275 0 -275 255v540z" />
    <glyph glyph-name="uni10A2" unicode="&#x10a2;" horiz-adv-x="1210" 
d="M825 151q75 0 75 79v531q0 90 -95 90h-420q-75 0 -75 -90v-531q0 -79 75 -79h440zM110 761q0 265 273 265h327v219q0 80 -80 80h-115q-86 0 -86 -65l1 -85h-190v125q0 200 234 200h226q210 0 210 -215v-270q190 3 190 -194v-591q0 -255 -275 -255h-440q-275 0 -275 255
v531z" />
    <glyph glyph-name="uni10A3" unicode="&#x10a3;" horiz-adv-x="1181" 
d="M806 718q65 0 65 72v462q0 73 -65 73h-400q-85 0 -85 -73v-534h485zM121 670v582q0 248 285 248h402q263 0 263 -248v-462q0 -248 -265 -248l-485 6v-268q0 -106 129 -106h528v-173l-548 -1q-310 0 -309 274v396z" />
    <glyph glyph-name="uni10A4" unicode="&#x10a4;" 
d="M170 1248q0 252 263 252h352q275 0 275 -247v-1023q0 -255 -275 -255h-400q-275 0 -275 255l10 317h200l-10 -317q0 -79 75 -79h400q75 0 75 79v1023q0 72 -75 72h-350q-65 0 -65 -77l10 -284h-200z" />
    <glyph glyph-name="uni10A5" unicode="&#x10a5;" 
d="M525 900h223q92 0 92 119v236q0 70 -75 70h-345q-70 0 -70 -78l8 -184h-200l-8 184q0 253 268 253h347q275 0 275 -245v-176q0 -165 -151 -258q171 -93 171 -267v-325q0 -255 -275 -255h-400q-275 0 -275 255l10 318h200l-10 -318q0 -79 75 -79h400q75 0 75 79v385
q0 110 -95 110h-240v176z" />
    <glyph glyph-name="uni10A6" unicode="&#x10a6;" horiz-adv-x="1260" 
d="M30 1251q0 248 267 248h278q265 -10 275 -247v-198q-2 -19 -4 -37q294 -4 294 -227v-560q0 -255 -275 -255h-400q-275 0 -275 255v361q0 34 8 70q-168 3 -168 214v376zM865 151q75 0 75 79v576q0 69 -120 69v-86q0 -139 -165 -139h-265v-420q0 -79 75 -79h400zM573 811
q77 -1 77 63v378q0 72 -75 72h-276q-69 0 -69 -73v-376q0 -64 67 -64h276z" />
    <glyph glyph-name="uni10A7" unicode="&#x10a7;" horiz-adv-x="1640" 
d="M665 151q85 0 85 79v1015q0 80 -135 80h-220q-75 0 -75 -80v-1015q0 -79 75 -79h270zM1310 0l10 1253q0 72 -85 72h-110q-162 0 -183 -138q5 -30 8 -62v-895q0 -255 -285 -255h-270q-275 0 -275 255v1015q0 255 273 255h222q140 0 238 -143q90 143 230 143h152
q285 0 285 -247l-10 -1253h-200z" />
    <glyph glyph-name="uni10A8" unicode="&#x10a8;" horiz-adv-x="1160" 
d="M130 -1l-10 1248q0 252 273 252h375q272 0 272 -252l-10 -1248h-200l10 1248q0 77 -72 77h-373q-75 0 -75 -77l10 -1248h-200z" />
    <glyph glyph-name="uni10A9" unicode="&#x10a9;" horiz-adv-x="1170" 
d="M505 879l210 -1q125 0 125 123v103q0 56 -170 271l145 135q226 -240 226 -390v-131q0 -95 -149 -190q168 -94 168 -195v-380q0 -249 -275 -249h-400q-275 0 -275 249l9 321h200l-9 -321q0 -73 75 -73h400q75 0 75 73v380q0 100 -150 100h-205v175z" />
    <glyph glyph-name="uni10AA" unicode="&#x10aa;" horiz-adv-x="1171" 
d="M385 1326q-75 0 -75 -80l16 -940q0 -132 145 -132l500 1v-176h-510q-336 0 -336 307l-15 940q0 255 273 255h395q283 0 283 -255l-17 -519h-200l17 519q0 80 -85 80h-391z" />
    <glyph glyph-name="uni10AB" unicode="&#x10ab;" 
d="M785 151q75 0 75 79v619l-475 1q-75 0 -75 -74v-546q0 -79 75 -79h400zM110 776q0 249 273 249l477 -2v231q0 70 -75 70h-376q-74 0 -74 -74l-1 -46h-200v87q0 209 273 208h378q275 0 275 -245v-1024q0 -255 -275 -255h-400q-275 0 -275 255v546z" />
    <glyph glyph-name="uni10AC" unicode="&#x10ac;" 
d="M795 151q75 0 75 79v545q0 75 -75 75l-475 -1v-619q0 -79 75 -79h400zM120 1226q0 255 275 255l575 -1v-175l-575 1q-75 0 -75 -80v-201h475q275 0 275 -250v-545q0 -255 -275 -255h-400q-275 0 -275 255v996z" />
    <glyph glyph-name="uni10AD" unicode="&#x10ad;" horiz-adv-x="1550" 
d="M680 400v846q0 80 -145 80h-140q-75 0 -75 -80l10 -1246h-200l-10 1246q0 255 273 255h142q150 0 245 -153q94 153 245 153h122q283 0 283 -255l-10 -1246h-200l10 1246q0 80 -85 80h-120q-145 0 -145 -80v-846h-200z" />
    <glyph glyph-name="uni10AE" unicode="&#x10ae;" 
d="M483 896h272q105 0 105 113v155q0 69 -74 70h-171q-250 0 -250 267h200q0 -92 48 -92h172q275 0 275 -195v-230q0 -94 -136 -181q136 -96 136 -202v-371q0 -255 -275 -255h-400q-275 0 -275 255l10 317h200l-10 -317q0 -79 75 -79h400q75 0 75 79v371q0 120 -125 120
h-250z" />
    <glyph glyph-name="uni10AF" unicode="&#x10af;" 
d="M230 1481l830 20v-1273q0 -253 -275 -253h-400q-275 0 -275 253l10 317h200l-10 -317q0 -77 75 -77h400q75 0 75 77v1098l-175 -6v-234q0 -265 -285 -265h-270v176h270q85 0 85 89v228l-255 -8v175z" />
    <glyph glyph-name="uni10B0" unicode="&#x10b0;" horiz-adv-x="1170" 
d="M625 1315l-197 -20q-115 -44 -115 -179l-3 -161l467 -1q283 0 283 -255l-10 -699h-200l10 699q0 80 -85 80h-465l10 -779h-200l-10 699l3 442q0 299 313 329l199 20v-175z" />
    <glyph glyph-name="uni10B1" unicode="&#x10b1;" 
d="M892 1164q0 -186 43 -209q135 -50 135 -165v-560q0 -255 -277 -255h-398q-275 0 -275 255v1270h200v-1270q0 -79 75 -79h398q77 0 77 79v520q3 66 -95 95q-80 25 -83 319h200z" />
    <glyph glyph-name="uni10B2" unicode="&#x10b2;" horiz-adv-x="1303" 
d="M556 1265h-161q-75 0 -75 -65v-970q0 -79 75 -79h523q65 0 65 79v970q0 65 -65 65h-182v-673h-180v673zM120 1185q0 240 273 240h163v75h180v-75h182q265 0 265 -240v-955q0 -255 -265 -255h-523q-275 0 -275 255v955z" />
    <glyph glyph-name="uni10B3" unicode="&#x10b3;" 
d="M447 1246q0 79 -142 79h-193v175h193q131 0 226 -121q86 121 199 121h86q244 0 244 -214v-1056q0 -255 -275 -255h-400q-275 0 -275 255l10 325h200l-10 -325q0 -79 75 -79h400q75 0 75 79v1026q0 69 -60 69h-101q-62 0 -62 -79v-271h-190v271z" />
    <glyph glyph-name="uni10B4" unicode="&#x10b4;" horiz-adv-x="1680" 
d="M635 642q145 0 145 79v530q0 74 -75 74h-320q-75 0 -75 -74v-530q0 -79 75 -79h250zM1165 812h90q105 -5 105 173v260q0 80 -85 80h-190q-106 0 -105 -170v-434q0 -255 -345 -255h-250q-275 0 -275 255v530q0 249 273 249h252q150 0 244 -123q94 123 274 123h122
q285 0 285 -255v-290q0 -186 -185 -234q165 -54 165 -162v-310q0 -248 -284 -248h-901v176h900q85 0 85 72v290q0 101 -85 101h-90v172z" />
    <glyph glyph-name="uni10B5" unicode="&#x10b5;" 
d="M160 1170q0 225 223 225h122q47 0 355 -178v282h200v-1270q0 -255 -295 -255h-380q-275 0 -275 255l10 317h200l-10 -317q0 -79 75 -79h380q95 0 95 79v785q-320 206 -375 206h-40q-85 0 -85 -80l10 -161h-200z" />
    <glyph glyph-name="uni10B6" unicode="&#x10b6;" horiz-adv-x="1589" 
d="M1214 1l-708 -1q-362 0 -362 293l-15 933q0 275 273 275h142q160 0 255 -123q94 123 255 123h172q253 0 253 -275l-20 -700h-200l20 700q0 100 -75 100h-200q-105 0 -105 -100v-520h-200v520q0 100 -105 100h-190q-75 0 -75 -100l16 -913q0 -139 209 -139l660 1v-174z
" />
    <glyph glyph-name="uni10B7" unicode="&#x10b7;" 
d="M340 935q0 -99 105 -99h416l-1 643h200v-1250q0 -255 -275 -255h-400q-275 0 -275 255v237h200v-237q0 -79 75 -79h400q75 0 75 79l1 430l-416 1q-305 0 -305 275l10 564h1v-1h200z" />
    <glyph glyph-name="uni10B8" unicode="&#x10b8;" horiz-adv-x="1238" 
d="M163 700q0 255 293 255h457v289q0 81 -105 81h-80q-68 0 -69 -70v-111h-214l-1 115q0 66 -99 66h-182v174h172q159 0 159 -130h115q0 130 262 130q242 0 242 -225v-1034q0 -265 -255 -265h-400q-295 0 -295 265v460zM858 151q55 0 55 89v540h-455q-94 0 -94 -80v-460
q0 -89 94 -89h400z" />
    <glyph glyph-name="uni10B9" unicode="&#x10b9;" 
d="M320 954h239q145 -2 146 133v197q0 41 -65 42h-245q-75 0 -75 -79v-293zM120 0v1297q0 204 235 204l334 -1q215 0 215 -214v-177q0 -129 -84 -191q243 -5 250 -219l-10 -699h-200l10 699q0 80 -145 80h-405v-779h-200z" />
    <glyph glyph-name="uni10BA" unicode="&#x10ba;" horiz-adv-x="1230" 
d="M821 1501q0 -137 84 -138q195 0 194 -202v-186q0 -112 -105 -186q126 -94 126 -192v-368q0 -255 -285 -255h-440q-275 0 -275 255v1243h200v-1243q0 -79 75 -79h440q85 0 85 79v368q0 100 -85 100h-300v175h300v1q64 2 64 65v155q1 93 -53 93q-225 0 -225 315h200z" />
    <glyph glyph-name="uni10BB" unicode="&#x10bb;" 
d="M310 230q0 -79 75 -79h400q75 0 75 79v620h-475q-75 0 -75 -80v-540zM860 1500h200v-1270q0 -255 -275 -255h-400q-275 0 -275 255v540q0 255 275 255h475v475z" />
    <glyph glyph-name="uni10BC" unicode="&#x10bc;" horiz-adv-x="1238" 
d="M1113 240q0 -265 -295 -265h-400q-255 0 -255 265v1034q0 225 242 225q262 0 262 -130h115q0 130 159 130h172v-174h-182q-99 0 -99 -66l-1 -115h-214v111q-1 70 -69 70h-80q-105 0 -105 -81v-289h457q293 0 293 -255v-460zM818 151q94 0 94 89v460q0 80 -94 80h-455
v-540q0 -89 55 -89h400z" />
    <glyph glyph-name="uni10BD" unicode="&#x10bd;" horiz-adv-x="1215" 
d="M605 876h-122q-263 0 -263 183v143q0 210 273 210h221l-4 88h200l4 -88h191v-175h-169l124 -1008q0 -255 -285 -255h-390q-275 0 -275 255l20 347h200l-20 -347q0 -79 75 -79h390q85 0 85 79l-124 1008h-241q-75 0 -75 -57v-65q0 -64 75 -64h110v-175z" />
    <glyph glyph-name="uni10BE" unicode="&#x10be;" 
d="M320 850v-620q0 -79 75 -79h400q75 0 75 79v540q0 80 -75 80h-475zM320 1025h475q275 0 275 -255v-540q0 -255 -275 -255h-400q-275 0 -275 255v1270h200v-475z" />
    <glyph glyph-name="uni10BF" unicode="&#x10bf;" horiz-adv-x="1170" 
d="M160 1366l305 -5l2 138h200l-12 -138l285 5v-175l-295 5l-5 -189h125q285 0 285 -245l10 -533q0 -255 -275 -255h-400q-275 0 -275 255l10 433h200l-10 -433q0 -79 75 -79h400q75 0 75 79l-10 533q0 70 -85 70h-325l15 364l-295 -5v175z" />
    <glyph glyph-name="uni10C0" unicode="&#x10c0;" horiz-adv-x="1170" 
d="M470 1085h305q65 0 65 65v118q0 57 -83 57v-1h-480v176h478q286 0 286 -209v-145q0 -96 -150 -143q159 -52 159 -138v-160q0 -63 -152 -123q162 -64 162 -182v-187q0 -238 -285 -239v1h-390q-275 0 -275 255l10 260h200l-10 -260q0 -79 75 -79h400v-1q75 1 75 75v178
q0 94 -75 94h-305v175h315q55 0 55 78v75q0 84 -85 85h-295v175z" />
    <glyph glyph-name="uni10D0" unicode="&#x10d0;" horiz-adv-x="1150" 
d="M310 520l-10 -290q0 -80 75 -80h400q75 0 75 80v510q0 70 -85 70h-170q-250 0 -250 325h200q0 -150 48 -150h172q285 0 285 -245v-510q0 -255 -275 -255h-400q-275 0 -275 255l10 290h200z" />
    <glyph glyph-name="uni10D1" unicode="&#x10d1;" horiz-adv-x="1150" 
d="M100 770q0 255 273 255h115l20 123q10 120 -95 136.5t-105 215.5h231q1 -117 90 -152t69 -200l-10 -123h125q237 0 237 -255v-540q0 -255 -245 -255h-430q-275 0 -275 255v540zM805 151q45 0 45 79v540q0 80 -75 80h-400q-75 0 -75 -80v-540q0 -79 75 -79h430z" />
    <glyph glyph-name="uni10D2" unicode="&#x10d2;" 
d="M100 270q0 265 283 265h307v236q0 80 -85 80h-130q-75 0 -75 -77v-73h-200v114q0 210 220 210h266q204 0 204 -224v-287q190 -7 190 -244v-438q0 -265 -345 -265h-350q-285 0 -285 265v438zM735 -257q145 0 145 89v438q0 90 -85 90h-410q-85 0 -85 -90v-438q0 -89 85 -89
h350z" />
    <glyph glyph-name="uni10D3" unicode="&#x10d3;" horiz-adv-x="1139" 
d="M108 770q0 255 199 255h468q283 0 283 -255v-430q0 -255 -285 -255h-466v-229q0 -103 118 -103h444v-168h-477q-284 0 -284 260v925zM773 261q85 0 85 79v430q0 80 -85 80h-380q-85 0 -85 -80l-1 -509h466z" />
    <glyph glyph-name="uni10D4" unicode="&#x10d4;" horiz-adv-x="1160" 
d="M160 770q0 255 263 255h348q279 0 279 -255v-942q0 -261 -275 -261h-400q-275 0 -275 261l10 322h200l-10 -322q0 -85 75 -85h400q75 0 75 85v942q0 80 -79 80h-346q-65 0 -65 -80l10 -231h-200z" />
    <glyph glyph-name="uni10D5" unicode="&#x10d5;" horiz-adv-x="1160" 
d="M475 425h270q85 0 85 100v246q0 80 -75 80h-350q-65 0 -65 -100l7 -142h-200l-7 142q0 275 263 275h352q275 0 275 -255v-256q-30 -125 -131 -168q121 -33 151 -157v-366q0 -257 -275 -257h-400q-275 0 -275 257l10 327h200l-10 -327q0 -81 75 -81h400q75 0 75 81v346
q0 80 -105 80h-270v175z" />
    <glyph glyph-name="uni10D6" unicode="&#x10d6;" horiz-adv-x="1240" 
d="M30 1251q0 248 267 248h278q265 -10 275 -247v-198q-2 -19 -4 -37q294 -4 294 -227v-560q0 -255 -275 -255h-400q-275 0 -275 255v361q0 34 8 70q-168 3 -168 214v376zM865 151q75 0 75 79v576q0 69 -120 69l-10 -86q0 -139 -165 -139h-255v-420q0 -79 75 -79h400z
M563 811q77 -1 87 63v378q0 72 -75 72h-276q-69 0 -69 -73v-376q0 -64 67 -64h266z" />
    <glyph glyph-name="uni10D7" unicode="&#x10d7;" horiz-adv-x="1650" 
d="M1330 -10l20 781q0 79 -75 79h-210q-92 0 -104 -178l-1 -442q0 -255 -285 -255h-294q-281 0 -281 255v542q0 253 279 253h346q130 0 174 -123q114 123 194 123h182q275 0 275 -254l-20 -781h-200zM675 151q85 0 85 79v542q0 78 -85 78h-294q-81 0 -81 -78v-542
q0 -79 81 -79h294z" />
    <glyph glyph-name="uni10D8" unicode="&#x10d8;" horiz-adv-x="1120" 
d="M120 0l-20 770q0 255 273 255h372q275 0 275 -255l-20 -770h-200l20 770q0 80 -75 80h-370q-75 0 -75 -80l20 -770h-200z" />
    <glyph glyph-name="uni10D9" unicode="&#x10d9;" horiz-adv-x="1160" 
d="M485 425h230q115 0 115 160v96q1 64 -185 219l160 125q220 -204 225 -344v-86q-5 -135 -140 -209q160 -46 160 -166v-393q0 -260 -275 -260h-400q-275 0 -275 265l10 318h200l-10 -318q0 -89 75 -89h400q75 0 75 84v343q0 80 -80 80h-285v175z" />
    <glyph glyph-name="uni10DA" unicode="&#x10da;" horiz-adv-x="1154" 
d="M374 850q-74 0 -74 -80l9 -909q0 -108 91 -108h505v-167l-517 3q-288 0 -277 274l-11 907q0 255 272 255h412q273 0 273 -255l-10 -510h-200l10 510q0 80 -75 80h-408z" />
    <glyph glyph-name="uni10DB" unicode="&#x10db;" 
d="M785 151q75 0 75 79v619l-475 1q-75 0 -75 -74v-546q0 -79 75 -79h400zM110 776q0 249 273 249l477 -2v231q0 70 -75 70h-376q-74 0 -74 -74l-1 -46h-200v87q0 209 273 208h378q275 0 275 -245v-1024q0 -255 -275 -255h-400q-275 0 -275 255v546z" />
    <glyph glyph-name="uni10DC" unicode="&#x10dc;" 
d="M795 151q75 0 75 79v545q0 75 -75 75l-475 -1v-619q0 -79 75 -79h400zM120 1226q0 255 275 255l575 -1v-175l-575 1q-75 0 -75 -80v-201h475q275 0 275 -250v-545q0 -255 -275 -255h-400q-275 0 -275 255v996z" />
    <glyph glyph-name="uni10DD" unicode="&#x10dd;" horiz-adv-x="1480" 
d="M640 330v460q0 60 -78 60h-187q-75 0 -75 -80l20 -770h-200l-20 770q0 255 273 255h189q83 0 178 -143q94 143 175 143h192q273 0 273 -255l-10 -770h-200l10 770q0 80 -75 80h-190q-75 0 -75 -60v-460h-200z" />
    <glyph glyph-name="uni10DE" unicode="&#x10de;" horiz-adv-x="1151" 
d="M813 1440q238 1 238 -168v-240q0 -102 -175 -171q175 -86 174 -160v-471q0 -255 -275 -255h-400q-275 0 -275 255l10 420h200l-10 -420q0 -79 75 -79h400q75 0 75 79v471q0 83 -75 82h-300l-2 175h302q75 0 75 76v171q0 62 -95 60l-260 1q-210 0 -210 235h200
q0 -60 68 -60z" />
    <glyph glyph-name="uni10DF" unicode="&#x10df;" horiz-adv-x="1160" 
d="M220 985l830 40v-1200q0 -258 -275 -258h-400q-275 0 -275 258l10 294h200l-10 -294q0 -82 75 -82h400q75 0 75 82v1025l-175 -11v-229q0 -255 -275 -255h-280v176h280q75 0 75 79v216l-255 -16v175z" />
    <glyph glyph-name="uni10E0" unicode="&#x10e0;" horiz-adv-x="1160" 
d="M565 1315h-150q-119 -30 -119 -235l-4 -55h495q273 0 273 -254l-10 -771h-200l10 771q0 79 -75 79h-485l20 -850h-200l-20 800l-1 291q0 349 323 397l143 2v-175z" />
    <glyph glyph-name="uni10E1" unicode="&#x10e1;" horiz-adv-x="1160" 
d="M862 1094q0 -177 63 -219q135 -70 135 -215v-430q0 -255 -285 -255h-375q-290 0 -290 255v1270h200v-1270q0 -79 90 -79h375q85 0 85 79v430q0 55 -60 77q-138 32 -138 357h200z" />
    <glyph glyph-name="uni10E2" unicode="&#x10e2;" horiz-adv-x="1323" 
d="M120 750q0 245 263 245h183v210h180v-210h182q275 0 275 -245v-927q0 -255 -275 -255h-543q-265 0 -265 255v927zM566 820h-181q-65 0 -65 -70v-927q0 -79 65 -79h543q75 0 75 79v927q0 70 -75 70h-182v-525h-180v525z" />
    <glyph glyph-name="uni10E3" unicode="&#x10e3;" horiz-adv-x="1140" 
d="M402 399v371q0 80 -135 80h-185v175h185q129 0 224 -132q81 132 184 132h135q220 0 220 -252v-951q0 -255 -275 -255h-407q-268 0 -268 255l11 347h200l-11 -347q0 -79 68 -79h407q75 0 75 79v948q0 80 -80 80h-71q-77 0 -77 -80v-371h-200z" />
    <glyph glyph-name="uni10E4" unicode="&#x10e4;" horiz-adv-x="1650" 
d="M1110 337h125q105 0 105 87v346q0 80 -85 80h-190q-82 0 -103 -138q5 -30 8 -62v-325q0 -265 -285 -265h-300q-285 0 -285 265v445q0 255 283 255h302q90 0 184 -123q94 123 194 123h192q285 0 285 -255v-316q0 -123 -159 -215q139 -53 139 -146v-270q0 -250 -285 -257
h-594q-268 1 -268 295h200q0 -119 68 -118h594q85 1 85 87v263q0 72 -79 71l-131 -1v174zM685 236q85 0 85 89v355q0 170 -85 170h-300q-85 0 -85 -80v-445q0 -89 85 -89h300z" />
    <glyph glyph-name="uni10E5" unicode="&#x10e5;" horiz-adv-x="1160" 
d="M150 770q0 255 273 255h192q127 0 235 -78v553h200v-1675q0 -258 -275 -258h-400q-275 0 -275 258l20 324h200l-20 -324q0 -82 75 -82h400q75 0 75 82v819q-7 206 -235 206h-190q-75 0 -75 -80l10 -291h-200z" />
    <glyph glyph-name="uni10E6" unicode="&#x10e6;" horiz-adv-x="1510" 
d="M1250 -414l-894 -9q-246 1 -246 177l-10 1016q0 255 273 255h202q80 0 175 -123q94 123 175 123h212q273 0 273 -255l-20 -620h-200l20 620q0 80 -75 80h-210q-75 0 -75 -80v-410h-200v410q0 80 -75 80h-200q-75 0 -75 -80l10 -939q4 -77 103 -77l837 9v-177z" />
    <glyph glyph-name="uni10E7" unicode="&#x10e7;" horiz-adv-x="1160" 
d="M330 408q0 -79 95 -79h426l-1 655h200v-1161q0 -256 -275 -256h-399q-276 0 -276 257l10 205h200l-10 -205q0 -81 76 -81h399q75 0 75 80l-3 329l-422 1q-295 0 -295 275l20 562h200z" />
    <glyph glyph-name="uni10E8" unicode="&#x10e8;" horiz-adv-x="1238" 
d="M163 700q0 255 293 255h457v289q0 81 -105 81h-80q-68 0 -69 -70v-111h-214l-1 115q0 66 -99 66h-182v174h172q159 0 159 -130h115q0 130 262 130q242 0 242 -225v-1034q0 -265 -255 -265h-400q-295 0 -295 265v460zM858 151q55 0 55 89v540h-455q-94 0 -94 -80v-460
q0 -89 94 -89h400z" />
    <glyph glyph-name="uni10E9" unicode="&#x10e9;" horiz-adv-x="1160" 
d="M110 -10v1256q0 255 285 255l210 -1q262 0 263 -240v-180l-101 -137q293 -48 293 -244l-10 -709h-200l10 709q0 80 -85 80h-465v-789h-200zM310 954h173q175 0 175 126v148q-2 97 -69 97l-194 1q-85 0 -85 -80v-292z" />
    <glyph glyph-name="uni10EA" unicode="&#x10ea;" horiz-adv-x="1160" 
d="M525 395h220v1q95 -2 95 95v147q0 82 -65 87q-174 5 -174 300h200q0 -138 44 -139q195 -10 195 -150v-276q0 -73 -136 -148q156 -27 156 -172v-315q0 -258 -270 -258h-415q-265 0 -265 258v1170h200v-1170q0 -82 65 -82h415q70 0 70 82v315q0 80 -95 80h-240v175z" />
    <glyph glyph-name="uni10EB" unicode="&#x10eb;" horiz-adv-x="1160" 
d="M850 1500h200v-1270q0 -255 -275 -255h-400q-275 0 -275 255v540q0 255 275 255h475v475zM300 230q0 -79 75 -79h400q75 0 75 79v620h-475q-75 0 -75 -80v-540z" />
    <glyph glyph-name="uni10EC" unicode="&#x10ec;" horiz-adv-x="1238" 
d="M1113 240q0 -265 -295 -265h-400q-255 0 -255 265v1034q0 225 242 225q262 0 262 -130h115q0 130 159 130h172v-174h-182q-99 0 -99 -66l-1 -115h-214v111q-1 70 -69 70h-80q-105 0 -105 -81v-289h457q293 0 293 -255v-460zM818 151q94 0 94 89v460q0 80 -94 80h-455
v-540q0 -89 55 -89h400z" />
    <glyph glyph-name="uni10ED" unicode="&#x10ed;" horiz-adv-x="1195" 
d="M665 380h-192q-313 0 -313 227v182q0 236 313 236h321l-24 475h200l24 -475h101v-175h-92l47 -1018q0 -265 -275 -265h-400q-275 0 -275 265l15 347h200l-15 -347q0 -89 75 -89h400q75 0 75 89l-47 1018h-328q-115 0 -115 -75v-125q0 -95 115 -95h190v-175z" />
    <glyph glyph-name="uni10EE" unicode="&#x10ee;" horiz-adv-x="1160" 
d="M310 1025h465q285 0 285 -255v-540q0 -255 -285 -255h-400q-265 0 -265 255v1270h200v-475zM310 850v-620q0 -79 65 -79h400q85 0 85 79v540q0 80 -85 80h-465z" />
    <glyph glyph-name="uni10EF" unicode="&#x10ef;" horiz-adv-x="1150" 
d="M150 975h295l7 201h200l-7 -201h275v-175h-290v-294h125q275 0 285 -255l10 -423q0 -262 -277 -262h-398q-275 0 -275 262l10 353h200l-10 -353q0 -86 75 -86h398q77 0 77 86l-10 423q-10 80 -85 80h-332l17 469h-290v175z" />
    <glyph glyph-name="uni10F0" unicode="&#x10f0;" horiz-adv-x="1140" 
d="M433 652h283q94 1 94 61v107q0 49 -85 49h-303v175l313 1q61 0 61 66v89q-1 63 -136 62l-212 1q-193 0 -193 238h200q0 -65 55 -65h280q205 0 205 -147v-145q0 -124 -141 -182q156 -48 156 -132v-140q0 -75 -139 -128q158 -72 158 -187l1 -169q0 -231 -295 -232v1h-360
q-275 0 -275 255l10 200h200l-10 -200q0 -79 75 -79h370v-1q85 -1 85 77v162q0 88 -105 88h-292v175z" />
    <glyph glyph-name="endash" unicode="&#x2013;" horiz-adv-x="1024" 
d="M-6 488v140h1036v-140h-1036z" />
    <glyph glyph-name="emdash" unicode="&#x2014;" horiz-adv-x="2048" 
d="M8 628h2032v-140h-2032v140z" />
    <glyph glyph-name="quoteleft" unicode="&#x2018;" horiz-adv-x="664" 
d="M431 1292v-240h-198v262q0 84 51 128.5t147 44.5l-1 -122q-35 -4 -50 -15t-15 -36v-22h66z" />
    <glyph glyph-name="quoteright" unicode="&#x2019;" horiz-adv-x="664" 
d="M233 1247v240h198v-262q0 -84 -51 -128.5t-147 -44.5v122q35 3 50 14.5t15 36.5v22h-65z" />
    <glyph glyph-name="quotesinglbase" unicode="&#x201a;" horiz-adv-x="664" 
d="M233 0v240h198v-262q0 -84 -51 -129t-147 -45v123q35 3 50 14.5t15 36.5v22h-65z" />
    <glyph glyph-name="quotedblleft" unicode="&#x201c;" horiz-adv-x="1006" 
d="M771 1292v-240h-201v262q0 84 51.5 128.5t149.5 44.5l-1 -122q-38 -4 -53 -15t-15 -36v-22h69zM434 1292v-240h-199v262q0 84 51 128.5t148 44.5l-1 -122q-36 -4 -50.5 -15t-14.5 -36v-22h66z" />
    <glyph glyph-name="quotedblright" unicode="&#x201d;" horiz-adv-x="1006" 
d="M235 1247v240h199v-262q0 -84 -51 -128.5t-148 -44.5v122q36 4 51 15t15 36v22h-66zM570 1247v240h199v-262q0 -84 -51 -128.5t-148 -44.5v122q35 3 50 14.5t15 36.5v22h-65z" />
    <glyph glyph-name="quotedblbase" unicode="&#x201e;" horiz-adv-x="1006" 
d="M570 0v240h199v-262q0 -84 -51 -129t-148 -45v123q35 3 50 14.5t15 36.5v22h-65zM235 0v240h199v-262q0 -84 -51 -129t-148 -45v123q35 3 50.5 14.5t15.5 36.5v22h-66z" />
    <glyph glyph-name="dagger" unicode="&#x2020;" horiz-adv-x="1024" 
d="M607 1487v-388h287v-177h-287v-922h-190v922h-287v177h287v388h190z" />
    <glyph glyph-name="daggerdbl" unicode="&#x2021;" horiz-adv-x="1024" 
d="M607 1487v-330h287v-176h-287v-472h287v-176h-287v-333h-190v333h-287v176h287v472h-287v176h287v330h190z" />
    <glyph glyph-name="bullet" unicode="&#x2022;" horiz-adv-x="1208" 
d="M296 761q0 128 90 217q91 89 218 89t216 -90q90 -89 90 -216t-91 -218t-217 -91q-128 0 -217 91t-89 218z" />
    <glyph glyph-name="ellipsis" unicode="&#x2026;" horiz-adv-x="2048" 
d="M113 0v250h208v-250h-208zM794 0v250h208v-250h-208zM1478 0v250h208v-250h-208z" />
    <glyph glyph-name="guilsinglleft" unicode="&#x2039;" horiz-adv-x="631" 
d="M550 207h-217l-253 324l253 325h217l-256 -325z" />
    <glyph glyph-name="guilsinglright" unicode="&#x203a;" horiz-adv-x="631" 
d="M81 207l255 324q-29 37 -62 79l-66 84q-33 42 -65.5 83.5t-61.5 78.5h216l253 -325l-253 -324h-216z" />
    <glyph glyph-name="trademark" unicode="&#x2122;" horiz-adv-x="1706" 
d="M948 1453l148 -374q35 92 70 188t68 186h146v-554h-108v367q-35 -93 -69.5 -184.5t-69.5 -182.5h-75l-148 373v-373h-108v554h146zM717 1453v-94h-167v-460h-119v460h-171v94h457z" />
    <glyph glyph-name="minus" unicode="&#x2212;" horiz-adv-x="1706" 
d="M1455 680v-134h-1204v134h1204z" />
  </font>
</defs>
</svg>
